Лидия красноружева голые и смешные info. Голые и смешные. Лидия Красноружева (2006

Лидия красноружева голые и смешные info Rating: 8,3/10 974 reviews

Приколисты. В лифте с красотками

Лидия красноружева голые и смешные info

Презинтация крема для боди арт. Размер потока : 2,01 Мбайт 7% Выравнивание : Разделение по промежуткам Продолжительность промежутка : 40 мс. Размер потока : 3,11 Мбайт 11% Выравнивание : Разделение по промежуткам Продолжительность промежутка : 40 мс. Размер потока : 1,94 Мбайт 11% Выравнивание : Разделение по промежуткам Продолжительность промежутка : 40 мс. Размер потока : 2,41 Мбайт 6% Выравнивание : Разделение по промежуткам Продолжительность промежутка : 40 мс. Размер потока : 1,75 Мбайт 8% Выравнивание : Разделение по промежуткам Продолжительность промежутка : 40 мс.


Next

Голые и смешные. Лидия Красноружева

Лидия красноружева голые и смешные info

Размер потока : 2,21 Мбайт 8% Выравнивание : Разделение по промежуткам Продолжительность промежутка : 40 мс. Размер потока : 2,01 Мбайт 8% Выравнивание : Разделение по промежуткам Продолжительность промежутка : 42 мс. Размер потока : 1,44 Мбайт 6% Выравнивание : Разделение по промежуткам Продолжительность промежутка : 40 мс. Copyright ©2018 Infringement complaints: Execution time:0. Размер потока : 1,75 Мбайт 9% Выравнивание : Разделение по промежуткам Продолжительность промежутка : 40 мс. Размер потока : 1,74 Мбайт 8% Выравнивание : Разделение по промежуткам Продолжительность промежутка : 40 мс.

Next

Лидия красноружева актриса фото — wowme-herokuapp-com.global.ssl.fastly.net

Лидия красноружева голые и смешные info

Размер потока : 1,71 Мбайт 6% Выравнивание : Разделение по промежуткам Продолжительность промежутка : 40 мс. Жара во время паспортного контроля. Чаще всего реакции героев розыгрыша на неожиданную демонстрацию прелестей женских тел предсказать невозможно. Вижте и Цицопедията - Енциклопедия за големи цици: Тагове:. В проекте вы увидите, как раскованные красавицы-актрисы и актеры разыгрывают ни о чем не подозревающих случайных прохожих, посетителей клубов, покупателей в супермаркетах, пляжников, да кого угодно! Размер потока : 2,39 Мбайт 6% Выравнивание : Разделение по промежуткам Продолжительность промежутка : 40 мс.

Next

Голые и смешные. Лидия Красноружева (2006

Лидия красноружева голые и смешные info

Размер потока : 1,19 Мбайт 7% Выравнивание : Разделение по промежуткам Продолжительность промежутка : 40 мс. Горещина при паспортна проверка, 7. Размер потока : 2,06 Мбайт 5% Выравнивание : Разделение по промежуткам Продолжительность промежутка : 40 мс. Размер потока : 2,20 Мбайт 6% Выравнивание : Разделение по промежуткам Продолжительность промежутка : 40 мс. Размер потока : 1,77 Мбайт 8% Выравнивание : Разделение по промежуткам Продолжительность промежутка : 40 мс. Размер потока : 2,84 Мбайт 8% Выравнивание : Разделение по промежуткам Продолжительность промежутка : 40 мс.

Next

Лидия Красноружева

Лидия красноружева голые и смешные info

За внимание телезрителей будут бороться розыгрыши эротического характера! Размер потока : 2,68 Мбайт 6% Выравнивание : Разделение по промежуткам Продолжительность промежутка : 40 мс. Ads Download torrent Magnet link Latest search Download infomation The torrent has been downloaded 160163 times, the speed is very fast, the latest downloading time at 2018-12-28 13:49:06. Презентация на боя за бодиарт, 5. Сложнее - не закричать, не убежать, не полезть в драку и не свалиться на пол от смеха. Размер потока : 2,21 Мбайт 6% Выравнивание : Разделение по промежуткам Продолжительность промежутка : 40 мс. Попасть в ловушку Приколистов очень просто. Самые смешные видеоприколы дарят повод весело провести время.

Next

Приколисты. В лифте с красотками

Лидия красноружева голые и смешные info

Увлекателно лъскане на обувки, 10. Помогнете да си сваля ръкавицата, 8. Размер потока : 2,46 Мбайт 11% Выравнивание : Разделение по промежуткам Продолжительность промежутка : 40 мс. Размер потока : 1,88 Мбайт 7% Выравнивание : Разделение по промежуткам Продолжительность промежутка : 40 мс. Ads Download torrent Magnet link Latest search Download infomation The torrent has been downloaded 7975 times, the speed is very fast, the latest downloading time at 2018-12-26 07:10:11. Размер потока : 2,08 Мбайт 10% Выравнивание : Разделение по промежуткам Продолжительность промежутка : 40 мс. Размер потока : 2,27 Мбайт 6% Выравнивание : Разделение по промежуткам Продолжительность промежутка : 40 мс.

Next

Голые и смешные. Лидия Красноружева (2006

Лидия красноружева голые и смешные info

Размер потока : 1,78 Мбайт 7% Выравнивание : Разделение по промежуткам Продолжительность промежутка : 40 мс. Отвори хладилника - получи награда! Телезрители убедятся, что эротика может быть не только красивой, но и по-настоящему веселой! Самый сексуальный пистолет в мире. . Размер потока : 2,47 Мбайт 6% Выравнивание : Разделение по промежуткам Продолжительность промежутка : 40 мс. Размер потока : 2,37 Мбайт 7% Выравнивание : Разделение по промежуткам Продолжительность промежутка : 40 мс. Помогнете да се кача на мотора, 2. Размер потока : 1,72 Мбайт 6% Выравнивание : Разделение по промежуткам Продолжительность промежутка : 40 мс.

Next

Голые и смешные. Лидия Красноружева (2006

Лидия красноружева голые и смешные info

Лидия Красноружева - одна из актрис из этой юмористической эротической передачи с красивыми девушками. . . . .

Next