Скачать фильм сердце врага 2015 через торрент. В тылу врага 2 Лис пустыни скачать торрент бесплатно на PC

Скачать фильм сердце врага 2015 через торрент Rating: 7,3/10 628 reviews

Скачать фильм Сердце дракона 4 2017 через торрент в хорошем качестве бесплатно

скачать фильм сердце врага 2015 через торрент

Также в игре реализована возможность использования техники для передвижения по локациям — вы можете брать либо свою, либо трофейную технику и кататься на ней туда, куда вам нужно. Название: В сердце моря Оригинальное название: In the Heart of the Sea Страна: , , Слоган: «Based on the incredible true story that inspired Moby-Dick» Год: Жанр: , , , , , Премьера в мире: 2 декабря 2015 Премьера в России: 3 декабря 2015 Продолжительность: 122 мин. Не могут оставлять комменты к данной публикации. Главный герой этой истории, Эрик Липферт, с детства мечтавший стать летчиком, становится летчиком-истребителем. Они оба стоят перед не простой ситуацией. Среди них двое помощников капитана и сам капитан.

Next

Скачать фильм Домик в сердце (2014) WEB

скачать фильм сердце врага 2015 через торрент

Надежда на выживание совершенно призрачная. Живет он в пристройке рядом с домом хозяина. Есарев Формат: Matroska Видео: 1280x720 at 23. У нас конечно не torrentino, rutracker рутрекер и даже не кинозал, но есть новые фильмы и только самые интересные мультики для Ваших детишек! А предположим что на остров течением занесло усилился прилив , новые шлюпки на острове сделали, подлатали на основе старых обломков и прочего тем более что на острове, по сюжету до них были люди. А недалеко от судна — тот самый огромный кашалот, который и послужил причиной крушения их корабля и смерти семнадцати моряков. То что разрывы во времени - сократили немного, т.

Next

Холодное сердце (2016) скачать фильм через торрент бесплатно

скачать фильм сердце врага 2015 через торрент

Я бы оценил фильм 8 из 10 к киноляпам я не присматривался. Тем более, что по сюжету - пересказ одного человека другому и небольшие сокращения сцен допустимы. Всё о фильме: фотографии, обои, комментарии пользователей, сеансы, новости. Скачать фильм через торрент Сердце врага с торрента бесплатно и без регистрации. Бот по имени чаппи, Chappie 2. Посреди океана целых девяносто дней скитаются трое выживших.

Next

Скачать В тылу врага Штурм 2 торрент на русском

скачать фильм сердце врага 2015 через торрент

Например: комментарий школьника и человека в возрасте - в большинстве случаев будут сильно различаться. Корабль охотится уже на протяжении полутора лет. На этот раз вас ожидают новые миссии для одиночной компании, в которых вы примете участие в масштабных военных столкновениях и танковых баталиях. Т не способна справиться с таким мощным врагом, и потому. Прежде чем скачать через торрент, необходимо. А вообще согласен с тобой не стоит вестись на отрицательные отзывы.

Next

Скачать фильм Сердце

скачать фильм сердце врага 2015 через торрент

Морякам приходится пересесть в спасательные лодки. Было бы хорошо, если бы на сайтах ввели обязательную форму заполнения возраста человека; для того, что бы лучше ориентироваться к какой возрастной категории принадлежит человек писавший коммент. Фильм Сердце Врага 2015 Через Торрент Бесплатно В Хорошем Качестве Близкий враг скачать торрента » » доступно для скачивания. Военный скачать торрентом в хорошем качестве бесплатно и без регистрации Скачать фильм «Земля картелей» вы сможете бесплатно и быстро на нашем сайте. Но осенью 1820 года на корабль осуществил нападение страшный кашалот. Трейлер Сердце врага 2015 Скачать торрент.

Next

В сердце моря (2015) скачать фильм через торрент бесплатно

скачать фильм сердце врага 2015 через торрент

Верная союзническому долгу Красная Армия вступает в бой с сильным и жестоким врагом. Где можно скачать фильм ' Сердце врага 'за ранее спасибо! Если Вам удалось скачать бесплатно фильм В сердце моря или не удалось это сделать, если Вы каким либо образом использовали данные файлы и Вам есть что сказать, пожалуйста, напишите Ваше мнение по поводу В сердце моря, чтоб скачать фильм было стимулом для других и они так же смогли оставить об этом фильме полезную для других информацию. Родные сестры, но нет 2- ух наиболее не схожих друг на друга людей. Размер потока : 59,3 Мбайт 6% 6. Скачка через торрент полностью безвозмездно. Буду ждать от тебя тоже каких-то наводок у нас, по-моему, вкусы совпадают. По поводу ниженаписанных некоторых отрицательных отзывов - это не Экшн-Боевик, а более спокойный и интересный по сюжету фильм.

Next

Скачать фильм Сердце мира (2018) через торрент и смотреть онлайн в хорошем hd качестве

скачать фильм сердце врага 2015 через торрент

Ну и радость моих очей Киллиан Мерфи. Не менее широко представлена и военная техника — танки, ствольная, реактивная и самоходная артиллерия, тягачи, бронетранспортеры и многое другое. Теперь мужчинам пришлось вести борьбу за выживание в открытом море, под палящем солнцем и минимальными запасами провизии. Жанр: военный, драма Продолжительность: 172 мин. Несколько ремонтников во главе с Бонивуром поджигают вагоны, взорвав топливную цистерну. Размер потока : 69,6 Мбайт 7% 4.

Next

Скачать В тылу врага Штурм 2 торрент на русском

скачать фильм сердце врага 2015 через торрент

Он устраивается работником на железную дорогу — в депо, где занимается агитацией рабочих, желая саботировать поставки. Название в оригинале: Орден Год: 2015 Страна: Россия Режиссер: Алексей Быстрицкий В главных ролях: Роман Полянский,Валерий Ошомков,Александр Алёшкин,Юлия Кокрятская,Марина Митрофанова,Ши Янбин,Ген Сето,Осаму Ямамото,Сион Накамару,Джон Баханбаев,. Название: Сердце-обличитель Оригинальное название: The Tell-Tale Heart Год выхода: 2016 Жанр: триллер Режиссер: Джон Ла Тир В ролях: Патрик Флюгер, Роуз МакГоун, Питер Богданович, Джейкоб Варгас, Дэймон Уитакер, Ник Джонс мл. Есарев Формат: Matroska Видео: 1920x1080 at 23. Посмотреть стоит, но смотреть может быть тяжело. Фильм вполне хороший, в жанре морских приключений. Ангел во плоти: всеобщая любимица, отличница и надежда родителей.

Next